#TITLE:Enraptured;
#SUBTITLE:;
#ARTIST:Sammy Cheng;
#TITLETRANSLIT:Enraptured;
#SUBTITLETRANSLIT:;
#ARTISTTRANSLIT:Trinh Tu Van;
#CREDIT:Chu Nhat , 14-12-2008;
#BANNER:Enraptured-bn.png;
#BACKGROUND:Enraptured-bg.png;
#LYRICSPATH:;
#CDTITLE:pm4cd.png;
#MUSIC:Enraptured.mp3;
#OFFSET:0.100;
#SAMPLESTART:79.580;
#SAMPLELENGTH:20.000;
#SELECTABLE:YES;
#BPMS:0.000=140.000;
#STOPS:;
#BGCHANGES:;
// cache tags:
#FIRSTBEAT:2.000;
#LASTBEAT:451.500;
#SONGFILENAME:Songs/SDO/Enraptured/Enraptured.sm;
#HASMUSIC:1;
#HASBANNER:1;
#MUSICLENGTH:198.826;
// end cache tags

//---------------dance-single - ----------------
#NOTES:
     dance-single:
     :
     Hard:
     13:
     1.000,1.000,1.000,0.050,0.754,1149.000,340.000,10.000,0.000,47.000:
0000
0000
2000
0000
,
0000
0000
0000
0000
0000
0000
0000
0000
3012
0100
1000
0000
0100
1000
0100
0000
,
1000
0010
1000
0000
0100
0010
1000
0000
1003
0100
0010
0000
0100
0010
0001
0000
,
0100
1000
0100
0000
0010
0001
0010
0000
0100
0100
0010
0000
1000
0100
0010
0000
,
0100
0010
0001
0000
0100
1000
0100
0000
0001
0010
1000
0000
0010
0001
0100
0000
,
0010
0001
0010
0000
1000
0100
0010
0000
1000
1000
0001
0000
0010
0010
1000
0000
,
0100
0100
0001
0000
0010
0100
1000
0000
0010
0001
0010
0000
0100
0010
0100
0000
,
1000
0100
1000
0000
0010
0001
0010
0000
0100
0001
0010
0000
1000
0100
1000
0000
,
0001
0010
0001
0000
0100
0010
1000
0000
0010
0100
0001
0000
1000
0100
1000
0000
,
0010
0100
0001
0010
1000
0100
0010
0100
0011
0100
0010
0000
1010
0100
1000
0000
,
0011
0100
1000
0000
0110
0001
0010
0000
1001
0100
0100
0000
1001
0100
0010
0000
,
1001
0100
0001
0000
0110
1000
0001
0000
0110
0001
0010
0000
1001
0100
1000
0000
,
0011
0001
1000
0000
0110
0001
0010
0000
1001
0000
0010
0000
0101
0000
0010
0000
,
1100
0000
0010
0000
1001
0000
0100
0000
0101
0000
0001
0010
1100
0000
0010
0000
,
0101
0000
0010
0000
1001
0000
0000
0000
1100
0000
0001
0001
1010
0000
0100
0010
,
0011
0000
0100
0000
1001
0000
0000
0000
0110
0000
1000
0100
0011
0000
1000
0000
,
0110
0000
0001
0000
1010
0000
0000
0000
0011
0000
0100
0100
0011
0000
0001
0010
,
1010
0000
0100
0000
1001
0000
0110
0000
1100
0000
0001
0100
1001
0000
0010
0000
,
0101
0000
1000
0000
0011
0000
0000
0000
1010
0000
0100
0001
0110
0000
0010
0001
,
0101
0000
0010
0000
1100
0000
0000
0000
1001
0000
0100
0010
0101
0000
0010
0000
,
0110
0000
1000
0000
0011
0000
0000
0000
0101
0000
1000
0001
0110
0001
0010
0100
,
1100
0010
0100
0010
0100
1000
0100
0010
0001
1000
0001
0100
0001
1000
0001
0100
,
1101
0000
0000
0000
0000
0000
0000
0000
1010
0000
0100
0010
1001
0000
0100
0000
,
1010
0000
0100
0000
1001
0000
0000
0000
0011
0000
0100
0010
1001
0100
1000
0010
,
0101
0000
0100
0000
1001
0000
0000
0000
0111
0000
1000
0100
0011
0000
0010
0000
,
1001
0000
0010
0000
1100
0000
0000
0000
1001
0000
0010
0010
1100
0001
1000
0010
,
1100
0000
0010
0000
0101
0000
0000
0000
0011
0000
0100
1000
0101
0000
0010
0000
,
0011
0000
1000
0000
1010
0000
0000
0000
1001
0000
0010
0100
0011
0001
1000
0010
,
1100
0000
0010
0000
0101
0000
0000
0000
1101
0000
0010
0100
1001
0000
0010
0000
,
1100
0000
0010
0000
0101
0000
0000
0000
1100
0000
0010
0001
1010
0100
0001
0010
,
1001
0010
1100
0000
0101
0010
1010
1000
,
0110
0001
0011
1000
0110
1000
0011
0001
,
0110
0001
1100
0100
1001
0001
0110
1000
,
1001
0001
0110
1000
0011
0100
1010
0001
,
0110
0000
1010
0101
1010
0001
0010
1000
,
0011
1100
0011
0100
0001
0010
1000
0100
,
1001
0000
0110
0000
1100
0000
0001
0000
1011
0000
0100
0100
0101
0000
0010
0000
,
1010
0000
0010
0000
0110
0000
0000
0000
1001
0000
0010
0100
1001
0010
0001
0100
,
1001
0010
1001
0000
0110
1000
0101
1000
,
0110
1000
0101
1000
0110
0001
1100
0100
,
0011
0010
0011
1000
0010
0100
1001
0010
,
0100
0011
0101
1000
0011
0010
1001
0100
,
1001
0001
1010
0101
1010
0001
0010
1000
,
0010
0100
0001
0010
0100
0010
1000
0100
,
0001
0010
1010
0110
1011
0000
0000
0002
,
0000
0000
0000
0000
0000
0000
2003
0000
0100
0010
0001
0010
0100
0001
0010
0001
,
0100
0000
0010
0100
3001
0010
0001
0010
1001
0000
0001
0010
1100
0001
0100
1000
,
0101
0000
0010
0000
1001
0000
0100
0000
1101
0000
1000
0010
1010
0100
0010
0000
,
1100
0000
0010
0000
1100
0000
0010
0000
1100
0000
0100
0001
1010
0100
0010
0000
,
1100
0000
0001
0000
1100
0000
0010
0000
1110
0000
0001
0100
1001
0100
1000
0000
,
1010
0001
1010
0100
0011
0100
1010
0110
,
0011
0100
1010
0100
1001
0001
1100
0101
,
1001
0100
1001
0100
1000
0010
0100
0001
,
0010
0100
1000
0010
0100
0001
0010
1000
,
0100
0000
0010
0000
0001
0000
0010
0000
1000
0100
0010
0000
1000
0100
0001
0000
,
0010
0001
0100
0000
0010
0100
1000
0000
0010
0001
0010
0000
1000
0000
0100
0000
,
0011
0000
0110
0000
1100
0000
0011
0000
0001
0100
0010
0000
1000
0100
1000
0000
,
0100
1000
0100
0000
0010
0001
1000
0000
0010
1000
0001
0000
0100
0000
1000
0000
,
1001
0000
0110
0000
1001
0000
1010
0000
1000
0100
0001
0000
0010
0001
1000
0000
,
0100
1000
0001
0000
0010
0100
1000
0000
0010
0100
0010
0000
0001
0000
1000
0000
,
1010
0000
0101
0000
1100
0000
1001
0000
0100
0010
0100
0010
0100
1000
0100
1000
,
0001
0010
0001
0010
0100
1000
0100
0010
0001
1000
0100
0001
0010
1000
0010
0100
,
1000
0100
0010
0001
0010
0100
1000
0100
0010
0100
0010
0001
0010
0100
1000
0000
1001
0000
0000
0000
0010
0000
0010
0000
0110
0000
0000
0000
0100
0000
0000
0000
,
1100
0000
0010
0000
0101
0000
0000
0000
1010
0000
0100
0100
1001
1000
0001
0010
,
1100
0000
0010
0000
0101
0000
0000
0000
0101
0000
0010
1000
0101
0000
0100
0000
,
1001
0000
0100
0000
1100
0000
0000
0000
1001
0000
0010
0100
1010
0100
0001
1000
,
1010
0100
0110
0000
1000
0100
0010
0100
,
0110
0011
1100
0000
0100
0010
0001
0010
,
0011
1001
0110
0000
0001
1000
0100
1000
,
1100
0110
1001
0000
0010
0100
0001
0010
,
1100
0000
0011
0000
0110
0000
0000
0000
1101
0100
0010
0100
1000
0010
0001
0010
,
0100
1000
0010
0100
0001
0010
0100
1000
0010
0100
0001
0010
1000
0010
0001
0010
,
0100
1000
0010
0100
0001
0010
1100
1000
0011
0100
1000
0010
0100
0001
0010
0100
,
1000
0100
0010
0001
0010
0100
1000
0100
0010
0100
0001
1000
0100
0010
0100
0010
,
1001
0000
0000
0000
0110
0000
0000
0000
0111
1000
0100
0010
1001
0100
0010
1000
,
0101
0010
0001
0010
1100
0100
0010
0001
1010
0100
1000
0100
0011
0100
0001
0010
,
1100
1000
0010
0100
1010
0001
0100
0010
1001
0010
0001
0100
0011
0100
1000
0100
,
1001
0010
0001
0100
0011
0100
1000
0100
0011
0000
0100
0000
1010
0000
0100
0000
,
0010
0010
1010
0000
1001
0100
1100
0001
,
0110
1000
0101
0010
1001
0100
0011
0010
,
1010
0100
0101
0100
1001
0010
0011
0100
,
0101
0001
1100
0100
0101
0100
1010
0010
,
0011
0000
0110
1001
0110
1000
0100
0010
,
0110
0101
1100
0010
0100
0001
0010
0100
,
1001
0000
0110
0000
1100
0000
0001
0000
1011
0000
1000
1000
1100
0000
1000
0000
,
1010
0000
1000
0000
1001
0000
0000
0000
0101
0000
0010
0100
1001
0010
1000
0100
,
1010
0001
0010
0100
1001
0100
0010
0001
0110
0000
0001
0000
1010
0000
0001
0000
,
1100
0001
1010
0001
1100
1000
0011
0010
,
1100
0100
1100
0001
0100
0010
0101
0100
,
0010
1100
1010
0100
1001
0100
1001
0010
,
1001
0100
0011
1100
0011
0100
0001
1000
,
0100
0001
0100
1000
0100
0010
1000
0100
,
0001
0010
0011
0110
1011
0000
0000
0020
,
0000
0000
0000
0000
0000
0000
0230
0000
1000
0010
0001
0010
1000
0001
0010
0000
,
1000
0000
0010
0001
0310
1000
0010
1000
0111
0000
1000
0100
0011
1000
0010
0001
,
1010
0000
0100
0000
1001
0000
0100
0000
1101
0000
0001
0100
0101
0010
0001
0000
,
0110
0000
0001
0000
1010
0000
0100
0000
1010
0000
0001
0100
0011
0100
1000
0000
,
0101
0000
0010
0000
1001
0000
0100
0000
0111
0000
0001
0100
1001
0010
1000
0000
,
0110
0100
1100
0001
1010
0001
1100
0110
,
0011
1000
0101
0010
1001
0010
1100
0110
,
1001
0010
0101
0001
0010
0100
1000
0100
,
0001
1000
0100
0001
0100
0010
1000
0001
,
0100
0000
1000
0000
0100
0000
0010
0000
0001
0000
0010
0000
0100
0000
1000
0000
0100
0000
0010
0000
0100
0000
0010
0000
1002
0000
0000
0100
0000
0000
0010
0000
0000
0100
0000
0000
1010
0000
0000
0100
0000
0000
0010
0000
0000
1000
0000
0000
,
0110
1000
0100
0010
1100
0010
0100
1000
0110
1000
0100
0010
1100
0010
1000
0100
,
1010
0100
1000
0010
1100
0010
1000
0010
1100
0010
0100
1000
0110
1000
0010
0100
,
1010
0100
0010
1000
0110
1000
0010
1000
0110
1000
0100
0010
1100
0010
1000
0100
,
1010
0100
1000
0010
1100
0010
1000
0100
2013
0100
0001
0010
0101
0010
0001
0100
,
0110
0001
0010
0100
0011
0100
0001
0100
0101
0010
0100
0001
0110
0100
0010
0001
,
0110
0001
0010
0100
0011
0001
0100
0010
3111
0000
1110
0000
0111
0000
1110
0000
,
1011
0000
1101
0000
1011
0000
1101
0000
0011
0011
0011
0011
0110
0110
0110
0110
,
1000
0000
0100
0000
0010
0000
0001
0000
0010
0000
0100
0000
0010
0000
0001
0000
0010
0000
0100
0000
1000
0000
0100
0000
1002
0000
0000
0010
0000
0000
0100
0000
0000
0000
0000
0000
0010
0000
0000
0100
0000
0000
1000
0000
0000
0000
0000
0000
,
1000
0100
0010
0000
0100
1000
0100
0000
0010
0100
0010
0000
0100
0010
0100
0000
,
2103
0010
0001
0000
0100
0010
0001
0000
0010
0000
0100
0000
0010
0000
3000
0000
;

//---------------dance-single - ----------------
#NOTES:
     dance-single:
     :
     Medium:
     1:
     0.000,0.000,0.000,0.000,0.000,0.000,0.000,0.000,0.000,0.000:
0000
0000
0000
0000
;

//---------------dance-single - ----------------
#NOTES:
     dance-single:
     :
     Easy:
     1:
     0.000,0.000,0.000,0.000,0.000,0.000,0.000,0.000,0.000,0.000:
0000
0000
0000
0000
;
